Baby Bash -《Super Saucy》[APE]

Baby Bash -《Super Saucy》[APE]
  • 片  名  Baby Bash -《Super Saucy》[APE]
  • 简  介  音乐风格: 嘻哈/说唱发行时间: 2005年03月09日地区: 美国语言: 英语
  • 类  别  音乐
  • 小  类  欧美音乐


  • 详细介绍专辑英文名: Super Saucy歌手: Baby Bash音乐风格: 嘻哈/说唱资源格式: APE发行时间: 2005年03月09日地区: 美国语言: 英语简介: 专辑介绍:
    听这张专辑之前,看到amazon上有许多歌迷在骂Baby Bash,对这张专辑提出强烈的批评,很少看到一张专辑的评价如此之差,于是开始担心这张专辑真的想说的那样,其实经历了第一张专辑,Baby Bash至少不会给出一张全是零分的成绩单,听完之后总算送了一口气,专辑还不至于差到要扔进垃圾桶的地步,还是我太仁慈了,的确这不是一张纯正的rap专辑,本身是拉丁裔的Baby Bash唱rap算是半路出家,也许正因为这样,人们常常用另外一种说法质疑他的rap,说他的rap很smooth,这张专辑还是一转softcore的rap,虽然有一些gangsta rap的歌手的助阵,那种丝华柔顺的rap还是占了主导地位,Baby I'm Back加上时下正红的Akon,也火了一把,但我不希望Baby Bash每次的专辑都只有一首体面的歌曲,那样的话专辑实在有些骗钱之嫌,和Akon联袂的另一首个No Way Jose有些失败,要是没有Akon,那会更好,因为本来歌里面就有一个很地道的男音,就全北Akon那又高又尖的嗓子给完全破坏的情调,推荐唱片公司抹掉Akon的声音把他作为第二首单曲发行,Who Wit' Me都些让人受不了,先是开头THX似的开场,后来发现这首歌完全是依靠80年代成功歌曲Mickey,创意有佳,败类实足,专辑还特别支持同一公司的新人Natalie,其中她出现在两首歌曲中,Bubbalicious是首抒缓的拉丁歌曲,记住这个名字Natalie,在bonus中也猜到了会附上和3rd Wish合作的Obsession。如果下次在摊上看到这张专辑,我还是会买的。
  • Baby Bash -《Super Saucy》[APE]_large

精选评论

不得不说、还是十足十 够斤两 的说唱巨星!……顶!
LZ :谢了!
谢谢 分享
不错的砖
这张还是Baby Bash不错的一张,有akon助阵。
cue文件下不了,楼主能否帖出,谢啦.
有没朋友下了CUE文件呀,帖一下啦.
cue下了好几天啦,有朋友帖个文件呀,谢啦
cue下一周啦,还没源,高手支持呀.



REM COMMENT "ExactAudioCopy v0.99pb4"
FILE "Baby Bash - Super Saucy.ape" WAVE
TRACK 01 AUDIO
TITLE "Baby I'm Back (feat. Akon)"
PERFORMER "Baby Bash"
INDEX 01 00:00:00
TRACK 02 AUDIO
TITLE "Super Saucy (feat. Avant)"
PERFORMER "Baby Bash"
INDEX 00 03:37:16
INDEX 01 03:39:14
TRACK 03 AUDIO
TITLE "That's My Lady (Money) (feat. Nate Dogg)"
PERFORMER "Baby Bash"
INDEX 00 07:36:47
INDEX 01 07:38:45
TRACK 04 AUDIO
TITLE "Throwed Off (feat. Paul Wall & Natalie)"
PERFORMER "Baby Bash"
INDEX 00 11:27:38
INDEX 01 11:29:36
TRACK 05 AUDIO
TITLE "Trees (feat. Pit Bull & Angel Dust)"
PERFORMER "Baby Bash"
INDEX 00 15:08:07
INDEX 01 15:10:05
TRACK 06 AUDIO
TITLE "Who Wit' Me?"
PERFORMER "Baby Bash"
INDEX 00 18:53:58
INDEX 01 18:55:56
TRACK 07 AUDIO
TITLE "No Way Jose (feat. Akon)"
PERFORMER "Baby Bash"
INDEX 00 22:19:38
INDEX 01 22:21:36
TRACK 08 AUDIO
TITLE "Keep It 100 (feat. E-40 & Bosko)"
PERFORMER "Baby Bash"
INDEX 00 27:53:36
INDEX 01 27:55:34
TRACK 09 AUDIO
TITLE "Step In Da Club (feat. Rasheed, Lucky Luciano & Grimm)"
PERFORMER "Baby Bash"
INDEX 00 32:15:20
INDEX 01 32:17:18
TRACK 10 AUDIO
TITLE "That's What Tha Pimpin's There For (feat. Suga Free, Monkey Mike & Chingo Bling)"
PERFORMER "Baby Bash"
INDEX 00 36:21:27
INDEX 01 36:23:25
TRACK 11 AUDIO
TITLE "Bubbalicious (feat. Natalie)"
PERFORMER "Baby Bash"
INDEX 00 41:05:37
INDEX 01 41:07:35
TRACK 12 AUDIO
TITLE "Better Than I Can Tell Ya (feat. Richie Rich, Awax & Russell Lee)"
PERFORMER "Baby Bash"
INDEX 00 45:23:58
INDEX 01 45:25:56
TRACK 13 AUDIO
TITLE "Hennessey (feat. Mac Dre, Jay Tee & Miami The Most)"
PERFORMER "Baby Bash"
INDEX 00 49:46:05
INDEX 01 49:48:03
TRACK 14 AUDIO
TITLE "Outro (feat. Butch Cassidy, Don Cisco, Nino Brown (G' Fellas), Russell Lee & ..."
PERFORMER "Baby Bash"
INDEX 00 54:30:44
INDEX 01 54:32:42
TRACK 15 AUDIO
TITLE "Obsession [Bonus] (As Performed With 3rd Wish)"
PERFORMER "Baby Bash"
INDEX 00 60:04:43
INDEX 01 60:06:48
朋友,已剪下了,谢谢!
已试播放,挺好听的,谢谢分享.
下来试听听,谢谢lz了